<?xml version="1.0" standalone="no"?>
<!DOCTYPE svg PUBLIC "-//W3C//DTD SVG 1.1//EN" "http://www.w3.org/Graphics/SVG/1.1/DTD/svg11.dtd">
<svg xmlns="http://www.w3.org/2000/svg">
<metadata>Generated by Fontastic.me</metadata>
<defs>
<font id="untitled-font-1" horiz-adv-x="512">
<font-face font-family="untitled-font-1" units-per-em="512" ascent="480" descent="-32"/>
<missing-glyph horiz-adv-x="512" />

<glyph glyph-name="001-message" unicode="&#97;" d="M181 245l-64 0c-17 0-32 15-32 32l0 43c0 18 15 32 32 32l64 0c6 0 11-5 11-11l0-85c0-6-5-11-11-11z m-64 86c-6 0-10-5-10-11l0-43c0-6 4-10 10-10l54 0 0 64z m224-150l-21 0c-8 0-17 2-24 6l-119 59c-4 2-6 6-6 10l0 85c0 4 2 8 6 10l119 59 0 0c7 4 15 6 23 6l22 0c12 0 22-10 22-21l0-192c0-12-10-22-22-22z m-149 82l113-57c4-2 10-3 15-3l21 0 0 192-22 0c-5 0-9-1-14-4l-113-56z m117-82c-6 0-10 5-10 11l0 171c0 6 4 10 10 10 6 0 11-4 11-10l0-171c0-6-5-11-11-11z m-128-42l-21 0c-18 0-32 14-32 32l0 85c0 6 5 11 11 11 6 0 10-5 10-11l0-85c0-6 5-11 11-11l11 0 0 53c0 6 4 11 10 11 6 0 11-5 11-11l0-64c0-6-5-10-11-10z m-85 149l-21 0c-6 0-11 5-11 11 0 6 5 10 11 10l21 0c6 0 11-4 11-10 0-6-5-11-11-11z m267-32c-6 0-11 5-11 11 0 6 5 10 11 10 11 0 21 10 21 22 0 11-10 21-21 21-6 0-11 5-11 11 0 6 5 10 11 10 23 0 42-19 42-42 0-24-19-43-42-43z m64 11l21 0 0-22-21 0z m0 42l21 0 0-21-21 0z m0 43l21 0 0-21-21 0z m-352-320c-2 0-3 0-4 1-4 1-7 5-7 10l0 64c0 6 5 10 11 10 6 0 10-4 10-10l0-39 46 46c2 2 5 3 8 3l341 0c6 0 11 5 11 11l0 320c0 6-5 11-11 11l-21 0c-6 0-11 4-11 10 0 6 5 11 11 11l21 0c18 0 32-14 32-32l0-320c0-18-14-32-32-32l-337 0-61-61c-2-2-5-3-7-3z m-43 64c-18 0-32 14-32 32l0 320c0 18 14 32 32 32l384 0c6 0 11-5 11-11 0-6-5-10-11-10l-384 0c-6 0-11-5-11-11l0-320c0-6 5-11 11-11 6 0 11-4 11-10 0-6-5-11-11-11z"/>
<glyph glyph-name="002-guarantee" unicode="&#98;" d="M469 256c-6 0-10 5-10 11 0 111-91 202-203 202-112 0-203-91-203-202 0-6-4-11-10-11-6 0-11 5-11 11 0 123 100 224 224 224 124 0 224-101 224-224 0-6-5-11-11-11z m-106 0c-6 0-11 5-11 11 0 110-44 202-96 202-52 0-96-92-96-202 0-6-5-11-11-11-6 0-10 5-10 11 0 125 51 224 117 224 66 0 117-99 117-224 0-6-4-11-10-11z m-107 0c-6 0-11 5-11 11l0 234c0 6 5 11 11 11 6 0 11-5 11-11l0-234c0-6-5-11-11-11z m-213 0c-3 0-6 1-8 3-4 4-4 11 0 15 17 16 38 25 61 25 6 0 11-5 11-11 0-6-5-11-11-11-17 0-34-6-46-18-2-2-5-3-7-3z m213 0c-3 0-5 1-7 3-13 12-29 18-46 18-18 0-34-6-46-18-4-4-11-4-15 0-4 4-4 11 0 15 16 16 38 25 61 25 23 0 44-9 60-25 5-4 5-11 1-15-2-2-5-3-8-3z m107 0c-3 0-6 1-8 3-12 12-28 18-46 18-17 0-33-6-46-18-4-4-11-4-15 0-4 4-4 11 1 15 16 16 37 25 60 25 23 0 45-9 61-25 4-4 4-11 0-15-2-2-5-3-7-3z m106 0c-2 0-5 1-7 3-12 12-29 18-46 18-17 0-34-6-46-18-4-4-11-4-15 0-4 4-4 11 0 15 17 16 38 25 61 25 23 0 44-9 61-25 4-4 4-11 0-15-2-2-5-3-8-3z m-213-149c-29 0-53 24-53 53l0 21c0 30 24 54 53 54 29 0 53-24 53-54l0-21c0-29-24-53-53-53z m0 106c-18 0-32-14-32-32l0-21c0-18 14-32 32-32 18 0 32 14 32 32l0 21c0 18-14 32-32 32z m-96-213c-6 0-11 5-11 11l0 21c0 26 19 37 26 41l1 0 42 26c2 1 4 2 5 4 1 2 1 3 1 5l0 9c0 6 5 11 11 11 6 0 10-5 10-11l0-9c0-5-1-11-4-16-3-5-7-9-12-11l-44-27c-6-3-14-8-14-22l0-21c0-6-5-11-11-11z m192 0l-149 0c-6 0-11 5-11 11 0 6 5 10 11 10l138 0 0 11c0 14-8 19-14 22l-2 1-42 26c-5 2-9 6-12 11-3 5-4 11-4 16l0 9c0 6 4 11 10 11 6 0 11-5 11-11l0-9c0-2 0-3 1-5 1-2 3-3 4-4l44-26c7-4 26-15 26-41l0-21c0-6-5-11-11-11z m-213 149l21 0 0-21-21 0z m0 43l21 0 0-21-21 0z m0 43l21 0 0-22-21 0z m213-86l21 0 0-21-21 0z m0 43l21 0 0-21-21 0z m0 43l21 0 0-22-21 0z"/>
<glyph glyph-name="003-customer-service" unicode="&#99;" d="M192 213c-3 0-6 2-8 4-22 26-34 63-34 103l0 11c0 6 5 10 10 10 6 0 11-4 11-10l0-11c0-35 11-67 30-89 3-5 3-11-2-15-2-2-4-3-7-3z m128 0c-2 0-4 1-6 3-5 4-6 10-2 15 19 22 30 54 30 89l0 11c0 6 5 10 10 10 6 0 11-4 11-10l0-11c0-40-12-77-34-103-3-2-6-4-9-4z m86 150l-22 0c0 70-57 128-128 128-70 0-128-58-128-128l-21 0c0 82 67 149 149 149 83 0 150-67 150-149z m10-96l-21 0c-6 0-11 4-11 10l0 43c0 6 5 11 11 11 6 0 11-5 11-11l0-32 10 0c6 0 11 5 11 11l0 42c0 6-5 11-11 11l-21 0c-6 0-11 5-11 11 0 6 5 10 11 10l21 0c18 0 32-14 32-32l0-42c0-18-14-32-32-32z m-298 0l-22 0c-17 0-32 14-32 32l0 42c0 18 15 32 32 32l22 0c6 0 10-4 10-10l0-86c0-6-4-10-10-10z m-22 85c-5 0-10-5-10-11l0-42c0-6 5-11 10-11l11 0 0 64z m192-192l0 21c53 0 96 43 96 96l22 0c0-64-53-117-118-117z m-21-21l-21 0c-18 0-32 14-32 32 0 17 14 32 32 32l21 0c18 0 32-15 32-32 0-18-14-32-32-32z m-21 42c-6 0-11-4-11-10 0-6 5-11 11-11l21 0c6 0 11 5 11 11 0 6-5 10-11 10z m64 182l-54 0c-29 0-53 24-53 53 0 6 5 11 11 11 6 0 10-5 10-11 0-18 15-32 32-32l54 0c6 0 10-5 10-11 0-6-4-10-10-10z m42-43c-5 0-10 5-10 11 0 17-15 32-32 32-6 0-11 4-11 10 0 6 5 11 11 11 29 0 53-24 53-53 0-6-5-11-11-11z m-181 43l-11 0c-5 0-10 4-10 10 0 6 5 11 10 11l11 0c18 0 32 14 32 32 0 6 5 11 11 11 6 0 10-5 10-11 0-29-23-53-53-53z m43-331c-3 0-6 1-8 3l-74 75c-3 2-4 5-4 8 1 4 3 6 5 8l32 22c4 2 8 2 12 0l85-54c5-3 7-9 3-14-3-5-9-7-14-4l-80 50-15-10 65-66c4-4 4-11 0-15-2-2-4-3-7-3z m0 0c-3 0-6 1-8 3-4 4-4 11 0 15l22 22c4 4 10 4 15 0 4-5 4-11 0-16l-22-21c-2-2-4-3-7-3z m85 0c-3 0-5 1-7 3l-43 43c-2 2-4 5-3 9 0 3 2 6 5 7l85 54c4 2 8 2 12 0l32-22c2-2 4-4 4-8 1-3 0-6-3-8l-74-75c-2-2-5-3-8-3z m-26 51l26-25 58 58-15 10z m-102 45c-1 0-2 0-3 1-6 1-9 7-7 13l11 32c2 6 8 9 13 7 6-2 9-8 7-14l-11-32c-1-4-5-7-10-7z m-150-121l-20 7c0 0 8 24 11 32 9 30 28 50 60 60l64 21c5 2 11-1 13-6 2-6-1-12-7-14l-64-21c-24-8-39-23-46-47-3-8-11-32-11-32z m471 0c0 0-9 24-11 32-7 24-22 39-47 47l-64 21c-5 2-8 8-6 14 2 5 8 8 13 6l64-21c32-10 51-30 60-60 3-8 11-32 11-32z m-246 14l21 0 0-21-21 0z"/>
<glyph glyph-name="004-customer-service-1" unicode="&#100;" d="M224 149c-6 0-11 5-11 11 0 17 15 32 32 32l96 0c12 0 22 9 22 21 0 12-10 21-22 21l-96 0c-1 0-2 1-3 1l-30 10-52 0c-18 0-34-7-46-18l-10-11c-5-4-11-4-16 0-4 4-4 11 0 15l11 11c16 15 38 24 61 24l53 0c1 0 3 0 4 0l30-10 94 0c24 0 43-19 43-43 0-24-19-43-43-43l-96 0c-6 0-10-4-10-10 0-6-5-11-11-11z m-56-61l-16 15 22 22c2 2 5 3 7 3l146 0 113 92 47 76c-2 1-5 2-7 2-9 0-17 0-35-18l-21-21c-1-1-2-1-3-2l-53-32-11 18 52 32 21 20c22 23 35 25 50 25 15 0 27-13 29-14 3-4 4-9 1-13l-53-86c-1-1-1-2-2-2l-118-96c-1-2-4-3-6-3l-145 0z m-40-78c-3 0-5 1-8 3-4 5-4 11 0 16l46 45-113 113-35-35c-4-4-11-4-15 0-4 4-4 11 0 15l43 43c4 4 11 4 15 0l128-128c4-4 4-11 0-15l-53-54c-3-2-5-3-8-3z m149 363c-29 0-53 24-53 53l0 22c0 29 24 53 53 53 30 0 54-24 54-53l0-22c0-29-24-53-54-53z m0 107c-17 0-32-15-32-32l0-22c0-17 15-32 32-32 18 0 32 15 32 32l0 22c0 17-14 32-32 32z m96-203c-6 0-10 5-10 11l0 7c0 6-2 11-5 16-2 5-7 9-11 12l-43 24c-5 3-9 7-12 12-3 5-4 10-4 16l0 9c0 6 5 10 11 10 6 0 10-4 10-10l0-9c0-2 1-4 2-6 1-1 2-3 4-4l42-24c8-4 15-11 20-19 5-8 7-18 7-27l0-7c0-6-5-11-11-11z m-192-32c-6 0-10 5-10 11l0 39c0 9 2 19 7 27 5 8 11 15 20 19l42 24c2 1 3 3 4 4 1 2 1 4 1 6l0 9c0 6 5 10 11 10 6 0 11-4 11-10l0-9c0-6-2-11-5-16-2-5-7-9-11-12l-43-24c-5-3-9-7-12-12-3-5-4-10-4-16l0-39c0-6-5-11-11-11z"/>
<glyph glyph-name="005-survey" unicode="&#101;" d="M416 405c-6 0-11 5-11 11l0 53c0 24 19 43 43 43l21 0c24 0 43-19 43-43l0-10c0-6-5-11-11-11-6 0-10 5-10 11l0 10c0 12-10 22-22 22l-21 0c-12 0-21-10-21-22l0-53c0-6-5-11-11-11z m43-320c-6 0-11 5-11 11l0 320c0 6 5 11 11 11 6 0 10-5 10-11l0-320c0-6-4-11-10-11z m0-85c-4 0-8 2-10 6l-43 85c0 2-1 3-1 5l0 277c0 6 5 11 11 11 6 0 11-5 11-11l0-274 32-64 32 64 0 306-75 0c-6 0-11 5-11 11 0 6 5 11 11 11l85 0c6 0 11-5 11-11l0-320c0-2 0-3-1-5l-43-85c-2-4-5-6-9-6z m-384 0c-2 0-3 0-4 1-4 1-7 5-7 10l0 42c0 6 5 11 11 11 6 0 10-5 10-11l0-17 25 25c2 2 5 3 7 3l171 0c6 0 11 5 11 11l0 320c0 6-5 10-11 10l-256 0c-6 0-11-4-11-10l0-320c0-6 5-11 11-11 6 0 11-5 11-11 0-6-5-10-11-10-18 0-32 14-32 32l0 320c0 17 14 32 32 32l256 0c18 0 32-15 32-32l0-320c0-18-14-32-32-32l-166 0-40-40c-2-2-5-3-7-3z m277 85c-6 0-11 5-11 11 0 6 5 11 11 11 6 0 11 4 11 10l0 320c0 6-5 11-11 11-6 0-11 5-11 11 0 6 5 10 11 10 18 0 32-14 32-32l0-320c0-17-14-32-32-32z m-43 363c-6 0-10 5-10 11l0 17-25-25c-2-2-4-3-7-3l-192 0c-6 0-11 5-11 11 0 6 5 10 11 10l187 0 40 40c3 3 7 4 11 2 4-1 7-5 7-10l0-42c0-6-5-11-11-11z m-202-160c-3 0-6 1-8 3l-21 21c-4 5-4 11 0 16 4 4 11 4 15 0l14-14 45 46c5 4 11 4 16 0 4-5 4-11 0-16l-54-53c-2-2-5-3-7-3z m53-43l-107 0c-6 0-10 5-10 11l0 107c0 6 4 10 10 10l64 0c6 0 11-4 11-10 0-6-5-11-11-11l-53 0 0-85 85 0 0 32c0 6 5 10 11 10 6 0 11-4 11-10l0-43c0-6-5-11-11-11z m-53-106c-3 0-6 1-8 3l-21 21c-4 4-4 11 0 15 4 4 11 4 15 0l14-14 45 46c5 4 11 4 16 0 4-4 4-11 0-15l-54-53c-2-2-5-3-7-3z m53-43l-107 0c-6 0-10 5-10 11l0 106c0 6 4 11 10 11l64 0c6 0 11-5 11-11 0-6-5-10-11-10l-53 0 0-86 85 0 0 32c0 6 5 11 11 11 6 0 11-5 11-11l0-42c0-6-5-11-11-11z m32 277l85 0 0-21-85 0z m0-42l64 0 0-22-64 0z m0-107l85 0 0-21-85 0z m0-43l64 0 0-21-64 0z"/>
<glyph glyph-name="006-hand" unicode="&#102;" d="M235 0c-6 0-11 5-11 11l0 21c0 12-2 20-7 24l-4 3c-18 17-34 32-41 42-10 16-13 24-17 35-4 11-9 23-25 51-10 16-10 34 1 45 5 5 13 7 21 7 12 0 26-7 37-18 16-17 19-20 20-20l-7-9 1 0-1-11c-4 0-5 0-28 25-9 9-17 12-23 12-2 0-4-1-5-2-4-4-2-12 2-19 17-29 23-43 27-54 3-10 6-16 15-30 6-8 26-27 38-38l3-3c13-12 14-28 14-40l0-21c0-6-4-11-10-11z m42 256c-6 0-10 5-10 11 0 17 14 32 32 32 6 0 10-5 10-11 0-6-4-11-10-11-6 0-11-4-11-10 0-6-5-11-11-11z m43-11c-6 0-11 5-11 11 0 18 15 32 32 32 6 0 11-5 11-11 0-6-5-10-11-10-6 0-10-5-10-11 0-6-5-11-11-11z m43-10c-6 0-11 4-11 10 0 18 14 32 32 32 6 0 11-4 11-10 0-6-5-11-11-11-6 0-11-5-11-11 0-6-4-10-10-10z m64-235c-6 0-11 5-11 11l0 10c0 9 2 18 6 25l6 12c6 12 9 26 9 38l0 139c0 6-4 10-10 10-6 0-11-4-11-10 0-6-5-11-11-11-6 0-10 5-10 11 0 17 14 32 32 32 17 0 32-15 32-32l0-139c0-15-5-33-12-47l-6-13c-2-4-4-9-4-15l0-10c0-6-4-11-10-11z m-214 149c-6 0-10 5-10 11 0 6 4 11 10 11 6 0 11 4 11 10l0 235c0 18 14 32 32 32 18 0 32-14 32-32l0-149c0-6-5-11-11-11-6 0-10 5-10 11l0 149c0 6-5 11-11 11-6 0-11-5-11-11l0-235c0-17-14-32-32-32z m-96 192c-47 0-85 39-85 86 0 47 38 85 85 85 6 0 11-5 11-11 0-6-5-10-11-10-35 0-64-29-64-64 0-36 29-64 64-64 36 0 64 28 64 64 0 6 5 10 11 10 6 0 11-4 11-10 0-47-39-86-86-86z m0 64c-2 0-5 1-7 3l-22 22c-4 4-4 11 0 15 5 4 11 4 16 0l13-14 57 57c4 4 11 4 15 0 4-5 4-11 0-16l-64-64c-2-2-5-3-8-3z m278-64c-6 0-11 5-11 11 0 6 5 11 11 11 35 0 64 28 64 64 0 35-29 64-64 64-36 0-64-29-64-64 0-18 6-34 18-46 4-4 4-11 0-15-4-4-11-4-15 0-16 16-25 37-25 61 0 47 39 85 86 85 47 0 85-38 85-85 0-47-38-86-85-86z m21 54c-3 0-5 1-8 3l-42 42c-4 5-4 11 0 16 4 4 11 4 15 0l43-43c4-4 4-11 0-15-3-2-5-3-8-3z m-43 0c-2 0-5 1-7 3-4 4-4 11 0 15l42 43c5 4 11 4 16 0 4-5 4-11 0-16l-43-42c-2-2-5-3-8-3z"/>
<glyph glyph-name="007-dislike" unicode="&#103;" d="M32 298c-6 0-11 5-11 11 0 24 19 43 43 43 6 0 11-5 11-11 0-6-5-11-11-11-12 0-21-9-21-21 0-6-5-11-11-11z m21 64c-6 0-10 5-10 11 0 24 19 43 42 43 6 0 11-5 11-11 0-6-5-11-11-11-11 0-21-9-21-21 0-6-5-11-11-11z m22 64c-6 0-11 5-11 11 0 24 19 43 43 43l170 0c22 0 43-8 58-22l38 0c6 0 11-4 11-10 0-6-5-11-11-11l-42 0c-3 0-6 1-8 3-11 11-29 18-46 18l-170 0c-12 0-22-9-22-21 0-6-4-11-10-11z m160-416c-24 0-43 19-43 43l0 11c0 33 10 65 18 91 5 18 12 42 8 46 0 1-1 1-5 1l-170 0c-24 0-43 19-43 43 0 24 19 43 43 43 6 0 10-5 10-11 0-6-4-11-10-11-12 0-22-9-22-21 0-12 10-21 22-21l170 0c10 0 18-4 23-10 10-13 3-35-6-65-7-25-17-56-17-85l0-11c0-12 10-21 22-21 11 0 20 9 21 22 2 29 21 77 44 112 45 67 111 78 114 79 6 1 12-3 13-9 0-6-3-11-9-12-1 0-60-11-100-70-21-32-39-77-41-102-1-24-20-42-42-42z m32 192c-6 0-11 5-11 11 0 18-14 32-32 32-6 0-11 5-11 11 0 6 5 10 11 10 29 0 53-24 53-53 0-6-4-11-10-11z m224-21l21 0 0-21-21 0z m-43 0l21 0 0-21-21 0z m-43 0l22 0 0-21-22 0z m43 277l21 0 0-21-21 0z m53-256l-64 0c-17 0-32 15-32 32l0 32c0 6 5 11 11 11 6 0 11-5 11-11l0-32c0-6 4-10 10-10l64 0c6 0 11-5 11-11 0-6-5-11-11-11z m-85 96c-6 0-11 5-11 11l0 160c0 18 15 32 32 32l64 0c6 0 11-5 11-11 0-6-5-10-11-10l-64 0c-6 0-10-5-10-11l0-160c0-6-5-11-11-11z m43-96c-6 0-11 5-11 11l0 192c0 6 5 11 11 11 6 0 10-5 10-11l0-192c0-6-4-11-10-11z"/>
<glyph glyph-name="008-favorite" unicode="&#104;" d="M256 86c-2 0-4 0-6 1-118 76-186 184-186 297 0 59 48 107 107 107 34 0 65-16 85-43 20 27 51 43 85 43 59 0 107-48 107-107 0-36-12-79-22-100-3-6-9-8-15-5-5 2-7 9-5 14 10 20 21 60 21 91 0 47-39 86-86 86-32 0-61-18-76-47-3-7-15-7-18 0-15 29-44 47-76 47-47 0-86-39-86-86 0-104 62-204 171-275 11 7 21 16 31 24l5 4c5 3 11 3 15-2 4-5 3-11-2-15l-5-4c-12-10-25-20-38-29-2-1-4-1-6-1z m160-22c-2 0-4 1-6 2-57 35-90 85-90 137 0 29 24 53 53 53 18 0 33-8 43-21 10 13 25 21 43 21 29 0 53-24 53-53 0-52-33-102-90-137-2-1-4-2-6-2z m-43 171c-17 0-32-14-32-32 0-43 27-85 75-115 48 30 75 72 75 115 0 18-15 32-32 32-18 0-32-14-32-32 0-6-5-11-11-11-6 0-11 5-11 11 0 18-14 32-32 32z m-256-213c-2 0-3 0-5 1-71 43-112 105-112 169 0 36 29 64 64 64 6 0 11-4 11-10 0-6-5-11-11-11-24 0-43-19-43-43 0-55 35-108 96-147 22 14 41 30 56 48 4 4 11 5 15 1 5-4 5-11 1-15-17-21-40-40-66-56-2-1-4-1-6-1z"/>
<glyph glyph-name="009-feedback" unicode="&#105;" d="M75 64c-2 0-3 1-4 1-4 2-7 6-7 10l0 64c0 6 5 11 11 11 6 0 10-5 10-11l0-38 46 46c2 2 5 3 8 3l277 0c6 0 11 4 11 10l0 299c0 6-5 11-11 11l-384 0c-6 0-11-5-11-11l0-299c0-6 5-10 11-10 6 0 11-5 11-11 0-6-5-11-11-11-18 0-32 15-32 32l0 299c0 18 14 32 32 32l384 0c18 0 32-14 32-32l0-299c0-17-14-32-32-32l-273 0-61-61c-2-2-5-3-7-3z m405 22c-6 0-11 4-11 10 0 6 5 11 11 11 6 0 11 5 11 11l0 298c0 6-5 11-11 11-6 0-11 5-11 11 0 6 5 10 11 10 18 0 32-14 32-32l0-298c0-18-14-32-32-32z m-43-64c-2 0-5 1-7 3l-61 61-220 0c-6 0-10 4-10 10 0 6 4 11 10 11l224 0c3 0 6-1 8-3l46-46 0 38c0 6 4 11 10 11 6 0 11-5 11-11l0-64c0-4-3-8-7-10-1 0-2 0-4 0z m-149 149l-130 0c-16 0-31 5-43 15-12 10-19 24-19 38l0 86c0 6 5 10 11 10 6 0 10-4 10-10l0-86c0-8 4-16 12-22 8-6 18-10 29-10l130 0c3 0 6 1 8 3 2 2 3 5 3 8 0 3-1 6-3 8-2 2-5 3-8 3-6 0-11 4-11 10 0 6 5 11 11 11l11 0c3 0 5 1 7 3 2 2 3 5 3 8 0 3-1 5-3 7-2 2-4 3-7 3-6 0-11 5-11 11 0 6 5 11 11 11l10 0c3 0 6 1 8 3 2 2 3 4 3 7 0 3-1 6-3 8-2 2-5 3-8 3-6 0-10 5-10 11 0 6 4 10 10 10l11 0c3 0 6 1 8 3 2 2 3 5 3 8 0 3-1 6-3 8-2 2-5 3-8 3l-107 0c-4 0-8 2-9 6-2 3-2 8 1 11 12 17 19 36 19 57 0 6-5 11-11 11-6 0-10-5-10-11 0-41-34-74-75-74l-21 0c-6 0-11 4-11 10 0 6 5 11 11 11l21 0c29 0 53 24 53 53 0 18 15 32 32 32 18 0 32-14 32-32 0-18-4-37-13-53l88 0c9 0 17-3 23-9 6-6 9-14 9-23 0-9-3-17-9-23-2-1-4-3-6-4 3-5 4-10 4-16 0-8-3-16-9-22-2-2-3-3-5-5 2-4 4-10 4-15 0-9-4-17-10-23-1-2-3-3-5-4 3-5 4-10 4-16 0-9-3-17-9-23-6-6-14-9-23-9z"/>
<glyph glyph-name="010-info" unicode="&#106;" d="M491 42l-192 0c-6 0-11 5-11 11 0 6 5 11 11 11l192 0 0 330c0 6 4 11 10 11 6 0 11-5 11-11l0-330c0-12-10-22-21-22z m-278 0l-192 0c-11 0-21 10-21 22l0 320c0 11 10 21 21 21 6 0 11-5 11-11 0-6-5-10-11-10l0-320 192 0c6 0 11-5 11-11 0-6-5-11-11-11z m43 0c-6 0-11 5-11 11 0 18-14 32-32 32l-117 0c-6 0-11 5-11 11 0 6 5 10 11 10l117 0c18 0 33-8 43-21 10 13 25 21 43 21l149 0 0 320-21 0c-6 0-11 5-11 11 0 6 5 11 11 11l32 0c6 0 10-5 10-11l0-341c0-6-4-11-10-11l-160 0c-18 0-32-14-32-32 0-6-5-11-11-11z m0 342c-6 0-11 4-11 10 0 18-14 32-32 32-6 0-10 5-10 11 0 6 4 11 10 11 18 0 33-9 43-22 10 13 25 22 43 22l85 0c6 0 11-5 11-11 0-6-5-11-11-11l-85 0c-18 0-32-14-32-32 0-6-5-10-11-10z m-203 0l-32 0c-6 0-10 4-10 10 0 6 4 11 10 11l32 0c6 0 11-5 11-11 0-6-5-10-11-10z m203-267c-6 0-11 5-11 11l0 266c0 6 5 11 11 11 6 0 11-5 11-11l0-266c0-6-5-11-11-11z m-85 160c-2 0-4 1-6 2l-26 17-26-17c-4-2-8-3-11-1-4 2-6 6-6 10l0 170c0 6 5 11 11 11l64 0c6 0 10-5 10-11l0-170c0-4-2-8-5-10-2-1-4-1-5-1z m-32 43c2 0 4-1 6-2l15-10 0 140-43 0 0-140 16 10c2 1 4 2 6 2z m-86-235c-6 0-10 5-10 11l0 341c0 6 4 11 10 11l54 0c6 0 10-5 10-11 0-6-4-11-10-11l-43 0 0-330c0-6-5-11-11-11z m310 107c-6 0-11 4-11 10l0 75-11 0c-6 0-10 5-10 11 0 6 4 10 10 10l22 0c6 0 10-4 10-10l0-86c0-6-4-10-10-10z m21 0l-43 0c-6 0-10 4-10 10 0 6 4 11 10 11l43 0c6 0 11-5 11-11 0-6-5-10-11-10z m-32 149l21 0 0-21-21 0z"/>
<glyph glyph-name="011-help" unicode="&#107;" d="M235 330l-22 1c0 0 9 112 11 150 1 17 16 31 32 31 16 0 31-14 32-31 2-38 11-150 11-150l-22-1c0 0-8 112-10 149-1 6-6 12-11 12-5 0-10-6-11-12-2-37-10-149-10-149z m117-245c-6 0-11 5-11 11l0 11c0 9 3 18 10 26l17 21c10 13 16 30 16 47l0 66c0 27 10 61 18 89 5 17 9 33 9 40 0 3 0 10-1 11 0 0 0 0-1 0-2 1-6-2-16-21-11-22-41-70-43-72-3-5-9-6-14-3-5 3-7 10-4 15 1 0 32 49 42 70 9 17 20 36 39 32 20-4 20-23 20-32 0-10-5-26-11-46-7-26-17-59-17-83l0-66c0-22-7-43-21-60l-17-22c-3-3-4-8-4-12l0-11c0-6-5-11-11-11z m-192 192c-6 0-11 5-11 11l0 21c0 27-5 49-10 71-5 21-11 43-11 68 0 19 6 32 18 38 6 3 12 3 19 1 11-4 20-17 24-27 21-53 45-125 45-126 2-6-1-12-7-13-5-2-11 1-13 6 0 1-24 73-45 125-2 7-8 13-12 15-1 0-1 0-2 0-5-3-6-12-6-19 1-22 5-42 10-63 6-23 12-47 12-76l0-21c0-6-5-11-11-11z m181 32c0 0-1 0-1 0-6 1-10 7-9 13 0 0 12 84 17 119l0 1c3 24 0 28-1 29-1 0-2 0-4 0-3-2-13-9-21-46-4-25-23-94-24-97-1-6-7-9-13-8-5 2-9 8-7 13 0 1 19 72 24 96 6 33 17 54 33 61 7 3 15 3 22-1 17-9 14-35 12-49l0-2c-4-35-17-119-17-120-1-5-5-9-11-9z m-170-257c-6 0-11 4-11 10l0 23c0 33-14 45-38 68-7 6-15 13-23 21-13 13-19 34-25 57-5 18-10 37-19 51-11 16-14 32-10 44 3 7 8 13 16 15 23 7 39-10 51-21l2-3c9-9 18-24 27-39 4-8 9-17 13-22 35 0 113-4 113-85 0-6-5-11-11-11-6 0-11 5-11 11 0 56-46 64-96 64-2 0-5 1-7 3-6 6-12 17-20 29-7 13-16 28-23 35l-3 3c-11 11-19 18-29 15-1 0-1 0-2-2-1-3 0-12 8-24 11-17 17-38 22-58 5-19 10-38 19-47 8-8 15-15 22-21 26-24 45-41 45-83l0-23c0-6-4-10-10-10z m85-52c-127 0-256 26-256 75 0 25 37 51 94 63 5 2 11-2 12-8 2-5-2-11-8-12-52-12-77-33-77-43 0-22 92-54 235-54 63 0 123 7 168 18 6 2 12-2 13-8 1-5-2-11-8-13-46-11-108-18-173-18z m213 32c-4 0-8 3-9 7-3 5 0 11 5 14 16 7 26 15 26 22 0 10-25 31-77 43-6 1-10 7-8 12 1 6 7 10 12 8 57-12 94-38 94-63 0-16-13-30-38-42-2 0-3-1-5-1z m-213 11c-6 0-11 4-11 10 0 6 5 11 11 11 90 0 140 9 150 15 2 4 6 6 10 6 6 0 11-4 11-10 0-27-93-32-171-32z m-43 0c0 0 0 0 0 0-128 5-128 24-128 32 0 6 5 10 11 10 4 0 8-2 10-6 7-4 40-12 108-15 6 0 10-5 10-11 0-6-5-10-11-10z m-106 32l0 0z"/>
<glyph glyph-name="012-review" unicode="&#108;" d="M341 106c-3 0-5 1-7 3l-128 128c-5 5-14 14-14 29 0 8 3 16 10 22 6 7 14 10 22 10 15 0 24-8 29-14l85-85c4-4 4-11 0-15-4-4-11-4-15 0l-85 85c-5 5-8 8-14 8-2 0-5-2-7-4-2-2-4-5-4-7 0-6 3-9 8-14l128-128c4-4 4-10 0-15-2-2-5-3-8-3z m54 75c-3 0-6 1-8 3l-43 43c-4 4-8 7-13 7-6 0-11 5-11 11 0 6 5 11 11 11 15 0 23-9 28-14l43-43c4-4 4-11 0-15-2-2-5-3-7-3z m-32-32c-3 0-6 1-8 3l-43 43c-4 4-4 11 0 15 4 4 11 4 15 0l43-43c4-4 4-11 0-15-2-2-5-3-7-3z m63 64c-2 0-5 1-7 3l-32 32c-5 5-8 8-14 8-6 0-10 4-10 10 0 6 4 11 10 11 15 0 24-9 29-14l32-32c4-4 4-11 0-15-2-2-5-3-8-3z m75-11c-3 0-5 1-7 3l-64 64c-5 5-8 8-14 8-6 0-11 5-11 11 0 5 5 10 11 10 15 0 24-8 29-14l64-64c4-4 4-11 0-15-2-2-5-3-8-3z m-43-202l-42 0c-23 0-45 9-61 24l-53 53c-5 6-14 14-14 29 0 8 3 16 10 22 6 7 14 10 22 10 15 0 24-8 29-14l32-32c4-4 4-10 0-15-4-4-11-4-15 0l-32 32c-5 5-8 8-14 8-2 0-5-1-7-4-2-2-4-5-4-7 0-6 3-9 8-14l53-53c12-11 28-18 46-18l42 0c6 0 11-5 11-11 0-6-5-10-11-10z m-373 128c-2 0-4 0-6 2-3 2-5 6-4 10l20 123-92 92c-3 2-4 7-2 10 1 4 4 7 8 8l123 20 61 113c4 7 15 7 19 0l61-113 123-20c4-1 7-4 9-8 1-3 0-8-3-10l-75-75c-4-4-10-4-15 0-4 4-4 11 0 15l60 60-107 18c-3 0-6 2-8 5l-54 100-55-100c-2-3-4-5-8-5l-107-18 81-81c3-3 4-6 3-10l-18-107 88 44c5 3 12 1 14-5 3-5 1-11-4-14l-107-53c-1-1-3-1-5-1z"/>
<glyph glyph-name="013-like" unicode="&#109;" d="M448 160c-6 0-11 4-11 10 0 6 5 11 11 11 12 0 21 10 21 21 0 6 5 11 11 11 6 0 11-5 11-11 0-23-19-42-43-42z m-21-64c-6 0-11 4-11 10 0 6 5 11 11 11 11 0 21 10 21 21 0 6 5 11 11 11 6 0 10-5 10-11 0-23-19-42-42-42z m-22-64l-170 0c-22 0-43 8-58 21l-38 0c-6 0-11 5-11 11 0 6 5 10 11 10l42 0c3 0 6-1 8-3 11-11 29-18 46-18l170 0c12 0 22 10 22 21 0 6 4 11 10 11 6 0 11-5 11-11 0-23-19-42-43-42z m64 192c-6 0-10 4-10 10 0 6 4 11 10 11 12 0 22 10 22 21 0 12-10 22-22 22l-170 0c-10 0-18 3-22 9-10 14-4 35 5 65 7 25 17 56 17 86l0 10c0 12-10 22-22 22-11 0-20-10-21-22-2-29-21-77-44-112-45-67-111-79-114-80-6-1-12 3-13 9 0 6 3 12 9 13 1 0 60 10 100 70 21 31 39 76 41 101 1 24 20 42 42 42 24 0 43-19 43-43l0-10c0-33-10-66-18-92-5-17-12-41-8-46 0 0 1-1 5-1l170 0c24 0 43-19 43-43 0-23-19-42-43-42z m-181 21c-29 0-53 24-53 53 0 6 4 11 10 11 6 0 11-5 11-11 0-17 14-32 32-32 6 0 11-4 11-10 0-6-5-11-11-11z m-288 107l21 0 0-22-21 0z m43 0l21 0 0-22-21 0z m42 0l22 0 0-22-22 0z m-42-278l21 0 0-21-21 0z m53 160c-6 0-11 5-11 11l0 32c0 6-4 11-10 11l-64 0c-6 0-11 4-11 10 0 6 5 11 11 11l64 0c17 0 32-14 32-32l0-32c0-6-5-11-11-11z m-21-224l-64 0c-6 0-11 5-11 11 0 6 5 11 11 11l64 0c6 0 10 4 10 10l0 160c0 6 5 11 11 11 6 0 11-5 11-11l0-160c0-17-15-32-32-32z m-22 86c-6 0-10 4-10 10l0 192c0 6 4 11 10 11 6 0 11-5 11-11l0-192c0-6-5-10-11-10z"/>
<glyph glyph-name="014-heart" unicode="&#110;" d="M341 107c-2 0-5 1-7 3l-128 128c-5 5-14 14-14 29 0 8 4 16 10 22 6 6 14 10 22 10 15 0 24-9 29-14l85-85c4-5 4-11 0-16-4-4-11-4-15 0l-85 86c-5 4-8 7-14 7-2 0-5-1-7-3-2-2-4-5-4-7 0-6 3-9 8-14l128-128c4-4 4-11 0-15-2-2-5-3-8-3z m54 74c-3 0-6 1-8 3l-43 43c-4 5-7 8-13 8-6 0-11 4-11 10 0 6 5 11 11 11 15 0 23-9 29-14l42-42c4-5 4-11 0-16-2-2-5-3-7-3z m-32-32c-3 0-6 1-8 3l-43 43c-4 4-4 11 0 15 5 4 11 4 16 0l42-42c4-5 4-11 0-16-2-2-5-3-7-3z m64 64c-3 0-6 1-8 3l-32 32c-5 5-8 8-14 8-6 0-10 5-10 11 0 6 4 10 10 10 15 0 24-8 29-13l32-32c4-5 4-11 0-16-2-2-5-3-7-3z m74-10c-2 0-5 1-7 3l-64 64c-5 4-8 7-14 7-6 0-11 5-11 11 0 6 5 11 11 11 15 0 24-9 29-14l64-64c4-4 4-11 0-15-2-2-5-3-8-3z m-42-203l-43 0c-23 0-45 9-61 24l-53 54c-5 5-14 14-14 29 0 8 4 16 10 22 6 6 14 10 22 10 15 0 24-9 29-14l32-32c4-4 4-11 0-15-4-4-11-4-15 0l-32 32c-5 4-8 7-14 7-2 0-5-1-7-3-2-2-4-5-4-7 0-6 3-9 8-14l53-53c12-12 28-19 46-19l43 0c6 0 10-4 10-10 0-6-4-11-10-11z m-267 107c-2 0-4 0-6 1-118 76-186 184-186 297 0 59 48 107 107 107 34 0 65-16 85-43 20 27 51 43 85 43 59 0 107-48 107-107 0-36-12-79-22-100-3-6-10-8-15-5-5 2-7 9-5 14 10 20 21 60 21 91 0 47-39 86-86 86-32 0-61-18-76-47-3-7-15-7-18 0-15 29-44 47-76 47-47 0-86-39-86-86 0-104 62-204 171-275 11 7 21 16 31 24l5 4c5 3 11 3 15-2 4-5 3-11-2-15l-5-4c-12-10-25-20-38-29-2-1-4-1-6-1z"/>
<glyph glyph-name="015-loyalty" unicode="&#111;" d="M256 107c-105 0-202 55-255 144-1 3-1 7 0 10 53 89 150 144 255 144 105 0 202-55 255-144 3-5 1-11-4-14-5-3-12-2-15 4-48 82-139 133-236 133-95 0-184-49-233-128 49-79 138-128 233-128 84 0 164 38 216 103 3 4 10 5 15 1 4-3 5-10 1-15-55-69-142-110-232-110z m0 0c-82 0-149 67-149 149 0 6 4 11 10 11 6 0 11-5 11-11 0-71 57-128 128-128 71 0 128 57 128 128 0 71-57 128-128 128-52 0-98-31-118-79-2-5-9-8-14-6-6 3-8 9-6 14 23 56 78 92 138 92 82 0 149-67 149-149 0-82-67-149-149-149z m0 74c-41 0-75 34-75 75 0 41 34 75 75 75 6 0 11-5 11-11 0-6-5-11-11-11-29 0-53-24-53-53 0-29 24-53 53-53 29 0 53 24 53 53 0 6 5 11 11 11 6 0 11-5 11-11 0-41-34-75-75-75z m0 54c-3 0-5 1-8 3l-21 21c-4 4-4 11 0 15 4 4 11 4 15 0l14-14 46 46c4 4 11 4 15 0 4-4 4-11 0-15l-53-53c-3-2-5-3-8-3z m-53 213l21 0 0-21-21 0z m42 0l22 0 0-21-22 0z m43 0l21 0 0-21-21 0z m-85-363l21 0 0-21-21 0z m42 0l22 0 0-21-22 0z m43 0l21 0 0-21-21 0z"/>
<glyph glyph-name="016-smartphone" unicode="&#112;" d="M262 149l64 0 0-21-64 0z m-86 299l235 0 0-21-235 0z m43-256l192 0 0-21-192 0z m192 171c-6 0-11 4-11 10l0 86c0 17-14 32-32 32l-149 0c-18 0-32-15-32-32l0-22c0-6-5-10-11-10-6 0-10 4-10 10l0 22c0 29 24 53 53 53l149 0c30 0 54-24 54-53l0-86c0-6-5-10-11-10z m-43-278l-128 0c-6 0-10 5-10 11 0 6 4 11 10 11l128 0c18 0 32 14 32 32l0 64c0 6 5 10 11 10 6 0 11-4 11-10l0-64c0-30-24-54-54-54z m43 235l-21 0c-18 0-32 14-32 32 0 18 14 32 32 32l21 0c18 0 32-14 32-32 0-18-14-32-32-32z m-21 43c-6 0-11-5-11-11 0-6 5-11 11-11l21 0c6 0 11 5 11 11 0 6-5 11-11 11z m21-86l-21 0c-18 0-32 15-32 32 0 18 14 32 32 32l21 0c18 0 32-14 32-32 0-17-14-32-32-32z m-21 43c-6 0-11-5-11-11 0-6 5-10 11-10l21 0c6 0 11 4 11 10 0 6-5 11-11 11z m21-85l-21 0c-18 0-32 14-32 32 0 17 14 32 32 32l21 0c18 0 32-15 32-32 0-18-14-32-32-32z m-21 42c-6 0-11-4-11-10 0-6 5-11 11-11l21 0c6 0 11 5 11 11 0 6-5 10-11 10z m-192-181c-3 0-6 1-8 3-4 4-4 11 0 15 18 18 18 37 18 67 0 30-10 58-29 79-2 2-3 5-3 8 1 1 11 64 11 84 0 16-10 32-21 32-6-31-16-52-23-67-5-12-9-21-9-29l0-64c0-16 0-36-14-50l-11-11c-4-4-11-4-15 0-4 4-4 11 0 15l11 11c7 7 7 22 7 35l0 64c0 13 6 25 12 38 7 15 15 33 21 62 2 10 11 18 22 17 25 0 41-28 41-53 0-19-7-66-10-82 21-24 32-56 32-89 0-32 0-57-25-82-2-2-5-3-7-3z m245 299c-3 0-5 1-8 3-4 4-4 11 0 15l22 21c4 4 7 8 7 14 0 3-1 6-3 8-2 2-4 3-7 3-6 0-10-4-14-8l-21-21c-5-4-11-4-16 0-4 4-4 11 0 15l22 21c5 5 14 14 29 14 8 0 16-3 22-9 6-6 10-14 10-23 0-15-9-24-14-29l-21-21c-3-2-5-3-8-3z m-256-374c-3 0-5 1-8 3-4 5-4 11 0 16 9 8 16 13 40 13 27 0 67 19 87 49 3 5 10 6 15 3 5-3 6-10 3-15-22-33-67-58-105-58-17 0-20-3-24-8-3-2-5-3-8-3z m0-21c-3 0-5 1-8 3-4 4-4 11 0 15l4 3-113 113-25-24c-4-4-11-4-15 0-4 4-4 11 0 15l32 32c4 4 11 4 15 0l128-128c4-4 4-11 0-15l-10-11c-3-2-5-3-8-3z"/>
<glyph glyph-name="017-feedback-1" unicode="&#113;" d="M256 107c-2 0-4 0-6 1l-224 150 12 18 218-146 218 146 12-18-224-150c-2-1-4-1-6-1z m-224-107c-4 0-7 2-9 5-3 5-2 11 3 15l149 96c5 3 12 1 15-4 3-5 2-11-3-14l-150-96c-1-1-3-2-5-2z m448 0c-2 0-4 1-6 2l-149 96c-5 3-7 9-4 14 4 5 10 7 15 4l149-96c5-4 7-10 4-15-2-3-6-5-9-5z m-54 224c-6 0-10 5-10 11l0 187-54 54 0-39 11 0c6 0 11-4 11-10 0-6-5-11-11-11l-21 0c-6 0-11 5-11 11l0 74c0 5 3 9 7 10 4 2 8 1 11-2l75-75c2-2 3-5 3-7l0-192c0-6-5-11-11-11z m-341 43c-6 0-11 4-11 10l0 224c0 6 5 11 11 11l224 0c6 0 11-5 11-11 0-6-5-10-11-10l-213 0 0-214c0-6-5-10-11-10z m235-43c-3 0-6 1-9 4-15 18-34 28-55 28-21 0-41-10-56-28-4-5-11-5-15-2-5 4-5 11-2 15 20 24 45 36 73 36 27 0 53-12 72-36 4-4 3-11-2-15-2-1-4-2-6-2z m-107 107c-6 0-11 4-11 10 0 18-14 32-32 32-6 0-10 5-10 11 0 6 4 11 10 11 30 0 54-24 54-54 0-6-5-10-11-10z m85 0c-6 0-10 4-10 10 0 30 24 54 53 54 6 0 11-5 11-11 0-6-5-11-11-11-18 0-32-14-32-32 0-6-5-10-11-10z m-96-267l22 0 0-21-22 0z m43 0l21 0 0-21-21 0z m43 0l21 0 0-21-21 0z m192-64l-86 0c-6 0-10 5-10 11 0 6 4 10 10 10l75 0 0 241-50 50c-4 5-4 11 0 16 4 4 11 4 15 0l53-54c2-2 3-5 3-7l0-256c0-6-4-11-10-11z m-128 0l-320 0c-6 0-11 5-11 11l0 256c0 2 1 5 3 7l53 54c5 4 11 4 16 0 4-5 4-11 0-16l-51-50 0-241 310 0c6 0 10-4 10-10 0-6-4-11-10-11z"/>
<glyph glyph-name="018-review-1" unicode="&#114;" d="M75 32c-2 0-3 0-4 1-4 1-7 5-7 10l0 53-32 0c-18 0-32 14-32 32l0 320c0 18 14 32 32 32l384 0c6 0 11-5 11-11 0-6-5-10-11-10l-384 0c-6 0-11-5-11-11l0-320c0-6 5-11 11-11l43 0c6 0 10-4 10-10l0-39 46 46c4 4 11 4 15 0 4-4 4-11 0-15l-64-64c-2-2-5-3-7-3z m405 64l-171 0c-6 0-10 5-10 11 0 6 4 10 10 10l171 0c6 0 11 5 11 11l0 320c0 6-5 11-11 11l-21 0c-6 0-11 4-11 10 0 6 5 11 11 11l21 0c18 0 32-14 32-32l0-320c0-18-14-32-32-32z m-309 21l21 0 0-21-21 0z m42 0l22 0 0-21-22 0z m43 0l21 0 0-21-21 0z m171 182l21 0 0-22-21 0z m-363 0l21 0 0-22-21 0z m256-118c-3 0-5 1-8 3l-56 57-56-57c-5-4-11-4-16 0l-32 32c-4 5-4 11 0 16l57 56-57 56c-4 5-4 11 0 16l32 32c5 4 11 4 16 0l56-57 56 57c5 4 11 4 16 0l32-32c4-5 4-11 0-16l-64-64c-5-4-11-4-16 0-4 5-4 11 0 16l57 56-17 17-56-57c-5-4-11-4-16 0l-56 57-17-17 57-56c4-5 4-11 0-16l-57-56 17-17 56 57c5 4 11 4 16 0l56-57 17 17-25 24c-4 5-4 11 0 16 5 4 11 4 16 0l32-32c4-5 4-11 0-16l-32-32c-3-2-5-3-8-3z"/>
<glyph glyph-name="019-phone-call" unicode="&#115;" d="M140 10c-16 0-31 5-42 16-62 58-98 142-98 230 0 88 36 172 98 230 14 13 33 18 53 15 16-2 30-9 39-20l15-18c6-7 9-16 7-25-1-9-6-17-13-22-19-12-35-27-46-41-6-8-15-12-25-12l-36 0c-14-30-28-67-28-107 0-40 14-77 28-107l36 0c10 0 19-4 25-12 11-14 27-29 46-41 7-5 12-13 13-22 2-9-1-18-7-25-4-5-10-6-15-2-4 4-5 11-1 15 2 3 3 6 2 9 0 3-2 5-4 7-12 8-34 25-51 46-2 3-5 4-8 4l-43 0c-4 0-8 2-9 6-16 32-33 75-33 122 0 47 17 90 33 122 1 4 5 6 9 6l43 0c3 0 6 1 8 4 17 21 39 38 51 46 2 2 4 4 4 7 1 3 0 6-2 9l-15 17c-6 7-15 11-26 13-8 1-23 2-35-9-58-55-92-133-92-215 0-82 34-161 92-215 12-11 27-10 35-9 1 0 2 0 4 1-20 15-38 34-54 57-3 5-2 11 2 15 5 3 12 2 15-3 19-26 39-46 62-61 2-2 4-5 4-8 1-3-1-6-3-9-8-7-17-12-27-13-4-1-7-1-11-1z m-33 395c-2 0-5 1-7 2-4 4-5 10-2 15 20 28 42 50 67 67 5 3 11 2 15-3 3-5 2-12-3-15-23-15-43-35-62-61-2-3-5-5-8-5z m265-395c-4 0-7 0-11 1-16 2-30 9-39 20l-15 17c-6 8-9 17-7 26 1 9 6 17 13 22 19 12 35 27 46 41 6 8 15 12 25 12l36 0c14 30 28 67 28 107 0 40-14 77-28 107l-36 0c-10 0-19 4-25 12-11 14-27 29-46 41-7 5-12 13-13 22-2 9 1 18 7 25 4 5 10 5 15 2 4-4 5-11 1-15-2-3-3-6-2-9 0-3 2-5 4-7 12-8 34-25 51-46 2-3 5-4 8-4l43 0c4 0 8-2 9-6 16-32 33-75 33-122 0-47-17-90-33-122-1-4-5-6-9-6l-43 0c-3 0-6-1-8-4-17-21-39-38-51-46-2-2-4-4-4-7-1-3 0-6 2-9l15-17c6-7 15-11 26-13 8-1 23-2 35 9 58 54 92 133 92 215 0 82-34 160-92 215-12 11-27 10-35 9-1 0-2 0-4-1 20-15 38-34 54-57 3-5 2-11-2-15-5-3-12-2-15 3-19 26-39 46-62 61-2 2-4 5-4 8-1 3 1 6 3 9 8 7 17 12 27 13 20 3 39-2 53-15 62-58 98-142 98-230 0-88-36-172-98-230-11-11-26-16-42-16z m-31 11c-3 0-6 2-9 5-3 5-2 12 3 15 23 15 43 35 62 61 3 5 10 6 15 3 4-4 5-10 2-15-20-28-42-50-67-67-2-1-4-2-6-2z m-85 118c-65 0-117 52-117 117 0 37 17 72 47 94 4 3 11 2 15-2 3-5 2-12-3-15-24-18-38-47-38-77 0-53 43-96 96-96 53 0 96 43 96 96 0 53-43 96-96 96-6 0-11 5-11 11 0 6 5 10 11 10 65 0 117-52 117-117 0-65-52-117-117-117z m-53 128l21 0 0-22-21 0z m42 0l22 0 0-22-22 0z m43 0l21 0 0-22-21 0z"/>
<glyph glyph-name="020-consulting" unicode="&#116;" d="M85 0c-1 0-2 0-4 1-4 1-6 5-6 10l0 64c0 6 4 10 10 10 6 0 11-4 11-10l0-39 46 46c2 2 5 3 7 3l320 0c12 0 22 10 22 22l0 298c0 12-10 22-22 22l-53 0c-6 0-11 4-11 10 0 6 5 11 11 11l53 0c24 0 43-19 43-43l0-298c0-24-19-43-43-43l-315 0-61-61c-2-2-5-3-8-3z m-42 64c-24 0-43 19-43 43l0 298c0 24 19 43 43 43l53 0c6 0 11-5 11-11 0-6-5-10-11-10l-53 0c-12 0-22-10-22-22l0-298c0-12 10-22 22-22 6 0 10-4 10-10 0-6-4-11-10-11z m362 181l-10 0c-6 0-11 5-11 11 0 6 5 11 11 11l10 0c12 0 22 9 22 21l0 21c0 12-10 22-22 22l-10 0c-6 0-11 4-11 10l0 22c0 70-57 128-128 128-71 0-128-58-128-128l0-22c0-6-5-10-11-10-6 0-10 4-10 10l0 22c0 82 67 149 149 149 82 0 149-67 149-149l0-11c24 0 43-19 43-43l0-21c0-24-19-43-43-43z m-288 0l-10 0c-24 0-43 19-43 43l0 21c0 24 19 43 43 43l10 0c6 0 11-5 11-11l0-85c0-6-5-11-11-11z m-10 86c-12 0-22-10-22-22l0-21c0-12 10-21 22-21z m149-224c-18 0-32 14-32 32 0 17 14 32 32 32 14 0 26-9 30-22l2 0c53 0 96 43 96 96l0 54c0 6 5 10 11 10 6 0 10-4 10-10l0-54c0-64-52-117-117-117l-11 0c-6 0-10 5-10 11 0 6-5 10-11 10-6 0-11-4-11-10 0-6 5-11 11-11 6 0 11-5 11-11 0-6-5-10-11-10z m96 245c-6 0-11 5-11 11 0 47-38 85-85 85-47 0-85-38-85-85 0-6-5-11-11-11-6 0-11 5-11 11 0 58 48 106 107 106 59 0 107-48 107-106 0-6-5-11-11-11z m-149-117l21 0 0-22-21 0z m42 0l22 0 0-22-22 0z m43 0l21 0 0-22-21 0z"/>
<glyph glyph-name="021-conversation" unicode="&#117;" d="M405 128c-29 0-53 24-53 53l0 22c0 29 24 53 53 53 30 0 54-24 54-53l0-22c0-29-24-53-54-53z m0 107c-17 0-32-15-32-32l0-22c0-17 15-32 32-32 18 0 32 15 32 32l0 22c0 17-14 32-32 32z m96-214c-6 0-10 5-10 11l0 21c0 14-9 19-15 22l-1 1-43 26c-5 3-9 7-12 12-3 5-4 10-4 16l0 9c0 6 5 10 11 10 6 0 10-4 10-10l0-9c0-2 1-4 2-6 1-1 2-3 4-4l43-26c7-4 26-14 26-41l0-21c0-6-5-11-11-11z m-192 0c-6 0-10 5-10 11l0 21c0 27 18 37 25 41l1 1 43 25c2 1 3 3 4 4 1 2 1 4 1 6l0 9c0 6 5 10 11 10 6 0 11-4 11-10l0-9c0-6-2-11-5-16-2-5-7-9-11-12l-44-27c-7-3-15-8-15-22l0-21c0-6-5-11-11-11z m96-21c-38 0-73 8-101 23-5 2-7 9-4 14 3 5 9 7 14 4 25-13 57-20 91-20 18 0 35 2 51 6 6 1 12-2 13-8 1-6-2-12-8-13-17-4-36-6-56-6z m-298 384c-30 0-54 24-54 53l0 22c0 29 24 53 54 53 29 0 53-24 53-53l0-22c0-29-24-53-53-53z m0 107c-18 0-32-15-32-32l0-22c0-17 14-32 32-32 17 0 32 15 32 32l0 22c0 17-15 32-32 32z m-96-214c-6 0-11 5-11 11l0 21c0 27 19 37 26 41l1 1 42 25c2 1 3 3 4 4 1 2 2 4 2 6l0 9c0 6 4 10 10 10 6 0 11-4 11-10l0-9c0-6-1-11-4-16-3-5-7-9-12-12l-44-27c-6-3-15-8-15-22l0-21c0-6-4-11-10-11z m192 0c-6 0-11 5-11 11l0 21c0 14-8 19-15 22l-1 1-43 26c-4 3-9 7-11 12-3 5-5 10-5 16l0 9c0 6 5 10 11 10 6 0 11-4 11-10l0-9c0-2 0-4 1-6 1-1 2-3 4-4l44-26c7-4 25-14 25-41l0-21c0-6-4-11-10-11z m-96-21c-20 0-39 2-56 6-6 1-9 7-8 13 1 6 7 9 13 8 16-4 33-6 51-6 34 0 66 7 91 20 5 3 11 1 14-4 3-5 1-12-4-14-28-15-63-23-101-23z m96-256c-3 0-6 1-8 3l-39 40-124 0c-18 0-32 14-32 32l0 128c0 17 14 32 32 32l213 0c18 0 32-15 32-32l0-128c0-18-14-32-32-32-6 0-10 4-10 10 0 6 4 11 10 11 6 0 11 5 11 11l0 128c0 6-5 10-11 10l-213 0c-6 0-11-4-11-10l0-128c0-6 5-11 11-11l128 0c3 0 6-1 8-3l24-25 0 17c0 6 5 11 11 11 6 0 10-5 10-11l0-42c0-5-2-9-6-10-2-1-3-1-4-1z m-118 149l22 0 0-21-22 0z m43 0l21 0 0-21-21 0z m43 0l21 0 0-21-21 0z m138 107c-1 0-2 0-4 1-4 1-6 5-6 10l0 42c0 6 4 11 10 11 6 0 11-5 11-11l0-17 24 25c2 2 5 3 8 3l128 0c6 0 11 5 11 11l0 128c0 6-5 10-11 10l-213 0c-6 0-11-4-11-10l0-128c0-6 5-11 11-11 6 0 10-5 10-11 0-6-4-10-10-10-18 0-32 14-32 32l0 128c0 17 14 32 32 32l213 0c18 0 32-15 32-32l0-128c0-18-14-32-32-32l-124 0-39-40c-2-2-5-3-8-3z m96 149l22 0 0-21-22 0z m-42 0l21 0 0-21-21 0z m-43 0l21 0 0-21-21 0z"/>
<glyph glyph-name="022-comment" unicode="&#118;" d="M75 6c-2 0-3 0-4 0-4 2-7 6-7 10l0 64c0 6 5 11 11 11 6 0 10-5 10-11l0-38 46 46c2 2 5 3 8 3l341 0c6 0 11 5 11 11l0 320c0 6-5 10-11 10l-64 0c-6 0-11 5-11 11 0 6 5 11 11 11l64 0c18 0 32-15 32-32l0-320c0-18-14-32-32-32l-337 0-61-61c-2-2-5-3-7-3z m-43 64c-18 0-32 14-32 32l0 320c0 17 14 32 32 32l64 0c6 0 11-5 11-11 0-6-5-11-11-11l-64 0c-6 0-11-4-11-10l0-320c0-6 5-11 11-11 6 0 11-5 11-11 0-6-5-10-11-10z m203 234c-3 0-6 1-8 3l-32 32c-4 5-4 11 0 16 4 4 11 4 15 0l25-25 67 67c4 4 11 4 15 0 4-4 4-11 0-15l-75-75c-2-2-5-3-7-3z m21-96c-82 0-149 67-149 150 0 82 67 149 149 149 82 0 149-67 149-149 0-30-8-57-23-81-3-5-9-6-14-3-5 3-7 10-4 15 13 20 20 44 20 69 0 70-57 128-128 128-71 0-128-58-128-128 0-71 57-128 128-128 24 0 49 7 69 19 5 4 12 2 15-3 3-5 1-12-4-15-23-14-52-23-80-23z m32-42l21 0 0-22-21 0z m-43 0l22 0 0-22-22 0z m-42 0l21 0 0-22-21 0z"/>
<glyph glyph-name="023-check-mark" unicode="&#119;" d="M75 32c-2 0-3 0-4 1-4 1-7 5-7 10l0 53-32 0c-18 0-32 14-32 32l0 320c0 18 14 32 32 32l384 0c6 0 11-5 11-11 0-6-5-10-11-10l-384 0c-6 0-11-5-11-11l0-320c0-6 5-11 11-11l43 0c6 0 10-4 10-10l0-39 46 46c4 4 11 4 15 0 4-4 4-11 0-15l-64-64c-2-2-5-3-7-3z m405 64l-171 0c-6 0-10 5-10 11 0 6 4 10 10 10l171 0c6 0 11 5 11 11l0 320c0 6-5 11-11 11l-21 0c-6 0-11 4-11 10 0 6 5 11 11 11l21 0c18 0 32-14 32-32l0-320c0-18-14-32-32-32z m-256 85c-3 0-5 1-8 3l-80 81c-13 13-13 33 0 46l16 17c5 4 11 4 16 0l32-32c4-5 4-11 0-16-5-4-11-4-16 0l-24 25-9-9c-5-5-5-11 0-16l73-73 145 145-9 9c-5 5-11 5-16 0l-112-113c-5-4-11-4-16 0-4 5-4 11 0 16l113 112c13 13 33 13 46 0l17-16c4-5 4-11 0-16l-160-160c-3-2-5-3-8-3z m-53-64l21 0 0-21-21 0z m42 0l22 0 0-21-22 0z m43 0l21 0 0-21-21 0z m171 182l21 0 0-22-21 0z m-363 0l21 0 0-22-21 0z"/>
<glyph glyph-name="024-smiley" unicode="&#120;" d="M149 352c-6 0-10 5-10 11 0 6-5 10-11 10-6 0-11-4-11-10 0-6-4-11-10-11-6 0-11 5-11 11 0 17 14 32 32 32 18 0 32-15 32-32 0-6-5-11-11-11z m107 0c-6 0-11 5-11 11 0 6-4 10-10 10-6 0-11-4-11-10 0-6-5-11-11-11-6 0-10 5-10 11 0 17 14 32 32 32 17 0 32-15 32-32 0-6-5-11-11-11z m-85-117c-1 0-1 0-2 0-26 3-52 20-71 47-3 5-2 11 2 15 5 3 12 2 15-3 16-22 36-35 57-38 6-1 10-6 9-12 0-5-5-9-10-9z m10-86c-100 0-181 82-181 182 0 100 81 181 181 181 100 0 182-81 182-181l0-22c0-6-5-10-11-10-6 0-11 4-11 10l0 22c0 88-71 160-160 160-88 0-160-72-160-160 0-89 72-160 160-160 14 0 27 1 40 5 6 1 12-2 13-8 2-6-2-12-7-13-15-4-30-6-46-6z m160-42c-2 0-5 1-7 3l-128 128c-5 5-14 14-14 29 0 8 4 16 10 22 6 6 14 10 22 10 15 0 24-9 29-14l85-85c4-5 4-11 0-16-4-4-11-4-15 0l-85 86c-5 4-8 7-14 7-2 0-5-1-7-3-2-2-4-5-4-7 0-6 3-9 8-14l128-128c4-4 4-11 0-15-2-2-5-3-8-3z m54 74c-3 0-6 1-8 3l-43 43c-4 5-7 8-13 8-6 0-11 4-11 10 0 6 5 11 11 11 15 0 23-9 29-14l42-42c4-5 4-11 0-16-2-2-5-3-7-3z m-32-32c-3 0-6 1-8 3l-43 43c-4 4-4 11 0 15 5 4 11 4 16 0l42-42c4-5 4-11 0-16-2-2-5-3-7-3z m64 64c-3 0-6 1-8 3l-32 32c-5 5-8 8-14 8-6 0-10 5-10 11 0 6 4 10 10 10 15 0 24-8 29-13l32-32c4-5 4-11 0-16-2-2-5-3-7-3z m74-10c-2 0-5 1-7 3l-64 64c-5 4-8 7-14 7-6 0-11 5-11 11 0 6 5 11 11 11 15 0 24-9 29-14l64-64c4-4 4-11 0-15-2-2-5-3-8-3z m-42-203l-43 0c-23 0-45 9-61 24l-53 54c-5 5-14 14-14 29 0 8 4 16 10 22 6 6 14 10 22 10 15 0 24-9 29-14l32-32c4-4 4-11 0-15-4-4-11-4-15 0l-32 32c-5 4-8 7-14 7-2 0-5-1-7-3-2-2-4-5-4-7 0-6 3-9 8-14l53-53c12-12 28-19 46-19l43 0c6 0 10-4 10-10 0-6-4-11-10-11z"/>
<glyph glyph-name="025-diamond" unicode="&#121;" d="M75 0c-2 0-3 0-4 1-4 1-7 5-7 10l0 64c0 6 5 10 11 10 6 0 10-4 10-10l0-39 46 46c2 2 5 3 8 3l277 0c6 0 11 5 11 11l0 277c0 6-5 11-11 11l-384 0c-6 0-11-5-11-11l0-277c0-6 5-11 11-11 6 0 11-4 11-10 0-6-5-11-11-11-18 0-32 14-32 32l0 277c0 18 14 32 32 32l384 0c18 0 32-14 32-32l0-277c0-18-14-32-32-32l-273 0-61-61c-2-2-5-3-7-3z m405 107c-6 0-11 4-11 10 0 6 5 11 11 11 6 0 11 5 11 11l0 277c0 6-5 11-11 11-6 0-11 4-11 10 0 6 5 11 11 11 18 0 32-14 32-32l0-277c0-18-14-32-32-32z m-43 320c-6 0-10 4-10 10l0 39-46-46c-2-2-5-3-8-3l-149 0c-6 0-11 4-11 10 0 6 5 11 11 11l145 0 61 61c3 3 7 4 11 2 4-1 7-5 7-10l0-64c0-6-5-10-11-10z m-170-150l-86 0c-4 0-7 2-9 6-2 3-2 8 0 11l43 64c4 6 14 6 18 0l43-64c2-3 2-8 0-11-2-4-5-6-9-6z m-66 22l46 0-23 34z m23-192c-3 0-6 1-8 3l-107 128c-4 5-3 12 2 16 4 3 11 3 15-2l98-117 119 159c4 5 11 6 15 3 5-4 6-11 3-15l-128-171c-2-3-5-4-9-4 0 0 0 0 0 0z m-43 170l-85 0c-4 0-8 2-9 6-2 3-2 8 0 11l43 64c4 6 14 6 18 0l42-64c2-3 3-8 1-11-2-4-6-6-10-6z m-65 22l45 0-22 34z m236-22l-85 0c-4 0-8 2-10 6-2 3-1 8 1 11l42 64c4 6 14 6 18 0l43-64c2-3 2-8 0-11-1-4-5-6-9-6z m-65 22l45 0-23 34z m-31 42l-117 0c-6 0-11 5-11 11 0 6 5 11 11 11l117 0c6 0 11-5 11-11 0-6-5-11-11-11z m-32-234c-5 0-9 3-10 8l-43 170c-1 6 2 12 8 13 5 2 11-2 13-7l42-171c2-6-2-12-7-13-1 0-2 0-3 0z m0 0c-1 0-2 0-3 0-5 1-9 7-7 13l42 171c2 5 8 9 13 7 6-1 9-7 8-13l-43-170c-1-5-5-8-10-8z m-139 341l22 0 0-21-22 0z m43 0l21 0 0-21-21 0z m43 0l21 0 0-21-21 0z"/>
<glyph glyph-name="026-review-2" unicode="&#122;" d="M458 187c-1 0-3 0-4 1l-64 32c-6 3-8 9-5 14 3 5 9 8 14 5l46-23-8 65c0 4 1 7 3 9l38 38-63 8c-4 1-7 3-9 7l-22 51-22-51c-3-6-9-8-14-6-6 2-8 9-6 14l32 75c2 3 6 6 10 6 4 0 8-3 10-6l29-69 79-10c5-1 8-4 9-7 2-4 1-9-2-11l-50-50 10-80c1-4-1-8-4-10-2-2-4-2-7-2z m-95-54c-2 0-4 1-5 2l-64 32c-5 2-8 9-5 14 3 5 9 7 14 5l47-24-9 77c0 3 1 6 3 9l49 48-74 8c-4 1-7 3-9 6l-33 74-22-52c-2-6-9-8-14-6-5 3-8 9-6 14l32 75c2 4 6 6 10 6l0 0c4 0 8-2 10-6l40-90 90-10c4-1 8-4 9-7 1-4 0-9-3-11l-60-61 10-91c1-4-1-7-4-10-2-1-4-2-6-2z m-96-53c-2 0-3 0-5 1l-91 41-92-41c-3-1-8-1-11 1-3 2-4 6-4 10l11 107c0 5 5 10 11 9 6-1 10-6 10-12l-9-88 79 35c3 1 6 1 9 0l79-35-9 88c0 4 1 7 3 9l61 61-87 17c-3 1-6 3-7 5l-44 79-44-79c-2-2-5-4-8-5l-87-17 29-29c4-4 4-11 0-15-4-4-11-4-15 0l-43 43c-3 2-4 6-3 10 2 4 5 7 9 8l101 20 51 92c4 6 15 6 19 0l51-92 102-20c3-1 7-4 8-8 1-4 0-8-3-10l-71-72 10-101c1-4-1-8-4-10-2-1-4-2-6-2z"/>
<glyph glyph-name="027-reviews" unicode="&#65;" d="M256 224c-76 0-139 62-139 138 0 77 63 139 139 139 76 0 139-62 139-139 0-76-63-138-139-138z m0 256c-65 0-117-53-117-118 0-64 52-117 117-117 65 0 117 53 117 117 0 65-52 118-117 118z m-21-107c-6 0-11 5-11 11 0 6-5 10-11 10-6 0-10-4-10-10 0-6-5-11-11-11-6 0-11 5-11 11 0 17 15 32 32 32 18 0 32-15 32-32 0-6-4-11-10-11z m85 0c-6 0-11 5-11 11 0 6-4 10-10 10-6 0-11-4-11-10 0-6-5-11-11-11-6 0-10 5-10 11 0 17 14 32 32 32 17 0 32-15 32-32 0-6-5-11-11-11z m-64-85c-27 0-53 12-72 36-4 4-3 11 1 15 5 3 11 3 15-2 15-18 35-28 56-28 21 0 41 10 56 28 4 5 10 5 15 2 4-4 5-11 1-15-19-24-45-36-72-36z m-117-278c-77 0-139 63-139 139 0 63 43 119 104 134 6 2 12-2 13-7 1-6-2-12-8-13-51-14-88-60-88-114 0-65 53-117 118-117 64 0 117 52 117 117 0 14-2 27-7 39-2 6 1 12 7 14 5 2 11-1 13-7 6-14 8-30 8-46 0-76-62-139-138-139z m-22 150c-6 0-10 4-10 10 0 6-5 11-11 11-6 0-11-5-11-11 0-6-4-10-10-10-6 0-11 4-11 10 0 18 14 32 32 32 18 0 32-14 32-32 0-6-5-10-11-10z m86 0c-6 0-11 4-11 10 0 6-5 11-11 11-6 0-10-5-10-11 0-6-5-10-11-10-6 0-11 4-11 10 0 18 15 32 32 32 18 0 32-14 32-32 0-6-4-10-10-10z m0-64l-128 0c-6 0-11 4-11 10 0 6 5 11 11 11l128 0c6 0 10-5 10-11 0-6-4-10-10-10z m170-86c-34 0-67 13-92 36-5 4-5 10-1 15 4 4 11 4 15 0 22-19 49-29 78-29 65 0 118 52 118 117 0 54-37 100-88 114-6 1-9 7-8 13 1 5 7 9 13 7 61-15 104-71 104-134 0-76-62-139-139-139z m43 150c-18 0-32 14-32 32 0 6 5 10 11 10 6 0 10-4 10-10 0-6 5-11 11-11 6 0 11 5 11 11 0 6 4 10 10 10 6 0 11-4 11-10 0-18-14-32-32-32z m-85 0c-18 0-32 14-32 32 0 6 4 10 10 10 6 0 11-4 11-10 0-6 5-11 11-11 6 0 10 5 10 11 0 6 5 10 11 10 6 0 11-4 11-10 0-18-15-32-32-32z m106-75c-3 0-6 1-8 4-15 18-35 28-56 28-21 0-40-10-55-28-4-5-11-5-15-2-5 4-6 11-2 15 19 24 45 36 72 36 28 0 53-12 73-36 3-4 3-11-2-15-2-1-4-2-7-2z"/>
<glyph glyph-name="028-24-hours" unicode="&#66;" d="M75 299c-5 0-9 3-11 8-11 44-11 89-11 109l0 21c0 6 5 11 11 11 6 0 11-5 11-11l0-21c0-19 0-63 10-104 1-6-2-12-8-13-1 0-1 0-2 0z m320-299l-22 0c-206 0-373 167-373 373l0 22c0 14 6 27 16 37 10 10 23 16 37 16l43 0c8 0 17-3 23-9 6-7 9-15 9-23 0-23 5-55 10-71 11-34-7-50-19-60-2-2-3-3-5-5l-16-16c15-37 37-72 65-101 29-28 64-50 101-65l16 16c2 2 3 3 5 5 10 12 26 30 60 19 16-5 48-10 71-10 9 0 17-3 23-9 6-6 9-14 9-23l0-32c0-6-5-11-11-11l-21 0c-20 0-65 0-109 11-6 2-9 8-8 13 1 6 7 9 13 8 41-10 85-10 104-10l11 0 0 21c0 3-1 6-3 8-2 2-5 3-8 3-22 0-57 4-78 11-20 7-28-2-37-13-2-2-4-4-5-6l-22-21c-3-3-7-4-11-3-43 16-82 41-115 73-31 33-57 72-73 115-1 4 0 8 3 11l21 22c2 1 4 3 6 5 11 9 20 17 13 37-7 21-11 56-11 78 0 3-1 5-4 8-2 2-4 3-7 3l-43 0c-8 0-16-4-22-10-6-6-10-14-10-22l0-22c0-194 158-352 352-352l22 0c6 0 18 1 24 8 4 4 11 4 15 0 4-4 4-11 0-15-11-12-28-14-39-14z m-171 256c-6 0-11 5-11 11 0 6 5 10 11 10 12 0 21 10 21 22 0 11-9 21-21 21-12 0-21-10-21-21 0-6-5-11-11-11-6 0-11 5-11 11 0 23 19 42 43 42 24 0 43-19 43-42 0-24-19-43-43-43z m32-53l-64 0c-6 0-11 4-11 10l0 22c0 23 19 42 43 42 6 0 11-4 11-10 0-6-5-11-11-11-12 0-21-10-21-21l0-11 53 0c6 0 11-5 11-11 0-6-5-10-11-10z m75 53c-24 0-43 19-43 43l0 32c0 6 5 10 11 10 6 0 10-4 10-10l0-32c0-12 10-22 22-22 6 0 10-4 10-10 0-6-4-11-10-11z m32-53c-6 0-11 4-11 10l0 118c0 6 5 10 11 10 6 0 10-4 10-10l0-118c0-6-4-10-10-10z m-107 245c-6 0-11 5-11 11l0 42c0 6 5 11 11 11 6 0 11-5 11-11l0-42c0-6-5-11-11-11z m245-203l-42 0c-6 0-11 5-11 11 0 6 5 11 11 11l42 0c6 0 11-5 11-11 0-6-5-11-11-11z m-69 102c-4 0-8 2-10 5-3 5-1 12 4 15l37 21c5 3 12 1 15-4 3-5 1-12-4-15l-37-21c-2-1-4-1-5-1z m-75 74c-1 0-3 0-5 1-5 3-7 10-4 15l21 37c3 5 10 7 15 4 5-3 7-10 4-15l-21-37c-2-3-6-5-10-5z m-153 20c-5 0-9 3-11 8l-5 21c-2 5 2 11 7 13 6 1 12-2 13-8l6-20c1-6-2-12-8-14-1 0-2 0-2 0z m268-254c-1 0-1 0-2 1l-21 5c-6 2-9 8-8 13 2 6 8 9 14 8l20-6c6-1 9-7 8-13-2-4-6-8-11-8z m-20 111c-5 0-9 3-11 8-1 5 2 11 8 13l21 5c5 2 11-2 13-7 1-6-2-12-8-13l-20-6c-1 0-2 0-3 0z m-53 91c-2 0-5 1-7 3-4 4-4 11 0 15l15 15c4 4 11 4 15 0 4-4 4-11 0-15l-15-15c-2-2-5-3-8-3z m-91 52c0 0-1 0-2 0-6 2-9 8-8 14l6 20c1 6 7 9 13 8 5-2 9-8 7-13l-5-21c-2-5-6-8-11-8z"/>
<glyph glyph-name="029-support" unicode="&#67;" d="M459 96l-406 0c-29 0-53 24-53 53l0 299c0 29 24 53 53 53l214 0c6 0 10-5 10-11 0-6-4-10-10-10l-214 0c-17 0-32-15-32-32l0-299c0-18 15-32 32-32l406 0c17 0 32 14 32 32l0 85c0 6 4 11 10 11 6 0 11-5 11-11l0-85c0-29-24-53-53-53z m-214 64l22 0 0-22-22 0z m75-150c-6 0-11 5-11 11l0 43c0 6 5 10 11 10 6 0 11-4 11-10l0-43c0-6-5-11-11-11z m-128 0c-6 0-11 5-11 11l0 85c0 6 5 11 11 11 6 0 11-5 11-11l0-85c0-6-5-11-11-11z m309 0l-341 0c-6 0-11 5-11 11 0 6 5 11 11 11l341 0c6 0 11-5 11-11 0-6-5-11-11-11z m-384 0l-106 0c-6 0-11 5-11 11 0 6 5 11 11 11l106 0c6 0 11-5 11-11 0-6-5-11-11-11z m384 171l-448 0c-6 0-10 5-10 11 0 6 4 10 10 10l448 0c6 0 11-4 11-10 0-6-5-11-11-11z m-245 43c-3 0-6 1-8 3l-27 28c-2 3-3 7-2 10 1 4 2 7 3 11 0 4 3 6 6 8l28 11 0 7-28 11c-3 1-6 4-6 8-1 3-2 7-3 10-1 4-1 7 2 10l18 24-3 6-30-5c-4 0-7 1-10 4-2 2-5 5-7 7-3 3-4 6-4 10l5 30-6 3-24-18c-3-3-6-3-10-2-3 1-7 2-10 3-4 0-7 3-8 6l-11 28-7 0-11-28c-2-3-4-6-8-6-4-1-7-2-11-3-3-1-7 0-10 2l-28 27c-4 4-4 11 0 15 4 5 11 5 15 1l23-23c0 0 1 0 1 0l12 30c1 4 5 6 10 6l21 0c4 0 8-2 10-6l12-30c0 0 1 0 1 0l25 19c4 3 8 3 12 1l19-10c3-3 5-7 5-11l-5-32c1 0 1 0 1-1l32 5c4 0 8-2 11-5l10-19c2-4 2-8-1-12l-19-25c0 0 0-1 0-1l30-12c4-2 6-6 6-10l0-21c0-5-2-9-6-10l-30-12c0 0 0-1 0-1l23-23c4-4 4-11-1-15-2-2-4-3-7-3z m-139 0c-41 0-74 33-74 74 0 42 33 75 74 75 20 0 39-8 53-22 4-4 4-11 0-15-4-4-11-4-15 0-10 10-23 16-38 16-29 0-53-24-53-54 0-29 24-53 53-53 30 0 54 24 54 53 0 6 4 11 10 11 6 0 11-5 11-11 0-41-33-74-75-74z m320 0c-2 0-5 1-7 3l-40 39-59 0c-18 0-32 15-32 32l0 171c0 18 14 32 32 32l149 0c18 0 32-14 32-32l0-171c0-17-14-32-32-32-6 0-11 5-11 11 0 6 5 11 11 11 6 0 11 4 11 10l0 171c0 6-5 11-11 11l-149 0c-6 0-11-5-11-11l0-171c0-6 5-10 11-10l64 0c3 0 5-1 7-3l25-25 0 17c0 6 4 11 10 11 6 0 11-5 11-11l0-43c0-4-3-8-7-10-1 0-2 0-4 0z m-85 170l21 0 0-21-21 0z m43 0l21 0 0-21-21 0z m42 0l22 0 0-21-22 0z"/>
<glyph glyph-name="030-bubble-chat" unicode="&#68;" d="M437 64c-2 0-5 1-7 3l-61 61-273 0c-18 0-32 15-32 32l0 299c0 18 14 32 32 32l384 0c18 0 32-14 32-32l0-299c0-17-14-32-32-32-6 0-11 5-11 11 0 6 5 11 11 11 6 0 11 4 11 10l0 299c0 6-5 11-11 11l-384 0c-6 0-11-5-11-11l0-299c0-6 5-10 11-10l277 0c3 0 6-1 8-3l46-46 0 38c0 6 4 11 10 11 6 0 11-5 11-11l0-64c0-4-3-8-7-10-1 0-2-1-4-1z m-405 22c-18 0-32 14-32 32l0 298c0 18 14 32 32 32 6 0 11-4 11-10 0-6-5-11-11-11-6 0-11-5-11-11l0-298c0-6 5-11 11-11 6 0 11-5 11-11 0-6-5-10-11-10z m43-64c-2 0-3 0-4 0-4 2-7 6-7 10l0 64c0 6 5 11 11 11 6 0 10-5 10-11l0-38 46 46c2 2 5 3 8 3l224 0c6 0 10-5 10-11 0-6-4-10-10-10l-220 0-61-61c-2-2-5-3-7-3z m213 149c-7 0-15 1-23 2-5 1-9 5-9 10 0 8-5 15-13 18-7 3-16 2-22-4-4-3-9-3-13 0-13 9-24 20-33 32-3 4-2 10 1 14 5 6 7 14 4 22-3 7-11 12-19 13-5 0-9 4-10 9-1 8-2 15-2 23 0 7 1 14 2 23 1 5 5 8 10 9 8 0 15 5 19 13 3 7 1 16-4 22-3 3-4 9-1 13 9 13 20 24 33 33 4 2 9 2 13-1 6-6 15-7 22-4 8 3 13 10 13 18 0 5 4 9 9 10 16 3 30 3 46 0 5-1 9-5 9-10 0-8 5-15 13-18 7-3 16-2 22 4 4 3 9 3 13 1 13-9 24-20 33-33 3-4 2-10-1-13-5-6-7-15-4-22 4-8 11-13 19-13 5-1 9-4 10-9 1-9 2-16 2-23 0-8-1-15-2-23-1-5-5-9-10-9-8-1-15-6-19-13-3-8-1-16 4-22 3-4 4-10 1-14-9-12-20-23-33-32-4-3-9-3-13 0-6 6-15 7-22 4-8-3-13-10-13-18 0-5-4-9-9-10-8-1-16-2-23-2z m-12 22c8-1 16-1 24 0 4 13 12 23 25 28 12 5 26 4 37-2 6 5 12 10 17 17-6 11-7 25-2 37 5 12 15 21 28 25 0 4 0 8 0 12 0 4 0 8 0 12-13 3-23 12-28 24-5 13-4 26 2 38-5 6-11 12-17 17-11-7-25-8-37-3-13 5-21 16-25 28-8 1-16 1-24 0-4-12-12-23-25-28-12-5-26-4-37 3-6-5-12-11-17-17 6-12 7-25 2-38-5-12-15-21-28-24 0-5 0-8 0-12 0-4 0-8 0-12 13-4 23-13 28-25 5-12 4-26-2-37 5-7 11-12 17-17 11 6 25 7 37 2 13-5 22-15 25-28z m111 76l0 0z m-99-13c-29 0-53 24-53 54 0 29 24 53 53 53 29 0 53-24 53-53 0-30-24-54-53-54z m0 86c-18 0-32-15-32-32 0-18 14-32 32-32 18 0 32 14 32 32 0 17-14 32-32 32z m160 106l21 0 0-21-21 0z m0-256l21 0 0-21-21 0z m-341 256l21 0 0-21-21 0z m0-256l21 0 0-21-21 0z"/>
</font>
</defs>
</svg>
